Page 16 Movie Download Free Full Length In 720p HDTV Quality Encoded In x264 With AAC Audio.

Page 16 Movie Free Download Direct Links HDTV x264, 2018

Details Of Full Length Free Videos

Title: Page 16 Movie
Genres: Horror | Mystery
Country: India
Language: Hindi
Release Date: 10 August 2018
Quality: 720p HDTV x264
Format: MKV
Size: 1.1-GB

IMDb

Storyline

Page 16 is a Supernatural thriller. It’s a story about an ambitious builder Ajay,who’s life turned upside down when he bought a book for his son Harsh. It all started with page 16 of that book where his past and present life gets entangled.

Main Cast

  • Aseem Ali Khan
  • Bidita Bag
  • Kiran Kumar
  • Zakir Hussain
  • Steven a Dsouza

Video File Details

Video File Details

Video
ID : 1
Format : AVC
Format/Info : Advanced Video Codec
Format profile : [email protected]
Format settings : CABAC / 4 Ref Frames
Format settings, CABAC : Yes
Format settings, RefFrames : 4 frames
Codec ID : V_MPEG4/ISO/AVC
Duration : 1 h 44 min
Bit rate : 1 304 kb/s
Width : 1 280 pixels
Height : 720 pixels
Display aspect ratio : 16:9
Frame rate mode : Variable
Frame rate : 24.919 FPS
Color space : YUV
Chroma subsampling : 4:2:0
Bit depth : 8 bits
Scan type : Progressive
Bits/(Pixel*Frame) : 0.057
Stream size : 983 MiB (89%)
Writing library : x264 core 155 r2901 7d0ff22
Encoding settings : cabac=1 / ref=1 / deblock=1:0:0 / analyse=0x3:0x113 / me=hex / subme=2 / psy=1 / psy_rd=1.00:0.00 / mixed_ref=0 / me_range=16 / chroma_me=1 / trellis=0 / 8x8dct=1 / cqm=0 / deadzone=21,11 / fast_pskip=1 / chroma_qp_offset=0 / threads=12 / lookahead_threads=4 / sliced_threads=0 / nr=0 / decimate=1 / interlaced=0 / bluray_compat=0 / constrained_intra=0 / bframes=3 / b_pyramid=2 / b_adapt=1 / b_bias=0 / direct=1 / weightb=1 / open_gop=0 / weightp=1 / keyint=500 / keyint_min=50 / scenecut=40 / intra_refresh=0 / rc_lookahead=10 / rc=abr / mbtree=1 / bitrate=1304 / ratetol=1.0 / qcomp=0.60 / qpmin=0 / qpmax=69 / qpstep=4 / vbv_maxrate=17500 / vbv_bufsize=17500 / nal_hrd=none / filler=0 / ip_ratio=1.40 / aq=1:1.00
Default : Yes
Forced : No
Color range : Limited
Color primaries : BT.709
Transfer characteristics : BT.709
Matrix coefficients : BT.709

Audio
ID : 2
Format : AAC LC
Format/Info : Advanced Audio Codec Low Complexity
Codec ID : A_AAC-2
Duration : 1 h 44 min
Bit rate : 159 kb/s
Channel(s) : 2 channels
Channel layout : L R
Sampling rate : 48.0 kHz
Frame rate : 46.875 FPS (1024 SPF)
Compression mode : Lossy
Delay relative to video : -21 ms
Stream size : 120 MiB (11%)
Language : Hindi
Default : Yes
Forced : No

Images, Screenshots Of Full Episodes

Some Images Of Page 16 Full Movie 720p HDTV

Page 16 Movie Free Download Direct Links HDTV x264, 2018

Page 16 Movie Free Download Direct Links HDTV x264, 2018

Page 16 Movie Free Download Direct Links HDTV x264, 2018

Watch The Full HD 720p, 1080p Movie Trailers

Watch Page 16 Movie Trailer

Direct Download Links Of Page 16 (2018) Full Movie In 720p HDTV Given Below

Free Download Direct Links HD

Direct Links For Premium Users

If you are the member of this site then enter your login details and Enjoy Direct Links

Leave a Reply

Your email address will not be published. Required fields are marked *

Check Also

Sui Dhaaga (2018) 720p HDRip HEVC AAC – 600 MB

Sui Dhaaga 2018 Full Movie Free Download In 720p HDRip Quality Encoded In x265 HEVC MKV. T…