Badhaai Ho 2018 Full Movie Download Direct Links 720p Pre-DVDRip Quality Encoded In x264.

Badhaai Ho 2018 Full Movie Free Download Direct Links 720p Predvdrip

Details Of Full Length Free Videos

Title: Badhaai Ho 2018
Genres: Comedy | Drama
Country: India
Language: Hindi
Release Date: 19 October 2018
Quality: 720p PRE-DVDRip x264
Format: MKV
Size: 1.1-GB

IMDb

Storyline Of Badhaai Ho 2018 Film

A man faces embarrassment in the society when he finds out his mother is pregnant

Badhaai Ho Movie Download is a 2018 Indian Hindi-language comedy-drama film directed by Amit Ravindernath Sharma. The film stars Ayushmann Khurrana, Neena Gupta, Gajraj Rao, and Sanya Malhotra in lead roles. It is produced by Vineet Jain, Hemant Bhandari and Aleya Sen under the banner of Junglee Pictures and Chrome Pictures, and is written by Shantanu Srivastava and Akshat Ghildial.

Plot

Nakul (Ayushmann Khurrana), is a 25-year-old guy working in a company and is in a stable relationship with his colleague, Renee (Sanya Malhotra). He also met with her mom Sangeeta (Sheeba Chaddha) who liked him and approved their relationship. His father Jeetender Kaushik (Gajraj Rao), is a middle-aged man working in the Railways. Badhaai Ho Full Hindi Movie Download Free 720p PreDVDRip He pays them a visit during the weekend. His mother Priyamvada (Neena Gupta) is a middle-aged typical housewife who looks after the family and gossips with the society’s ladies. His younger brother Gullar is a student studying in the twelfth grade. His grandmother (Surekha Sikri) is above eighty and always quarrels with her daughter-in-law and taunts her. She also scolds her son everytime as the latter always listens to his wife Badhai Ho Movie 2018 Download 720p.

Cast Of Badhaai Ho Full Movie:

  • Ayushmann Khurrana as Nakul Kaushik
  • Neena Gupta as Priyamvada Kaushik
  • Gajraj Rao as Jeetender Kaushik
  • Sanya Malhotra as Renee Sharma
  • Sheeba Chaddha as Sangeeta Sharma
  • Surekha Sikri as Dadi
  • Shardul Rana as Gullar Kaushik
  • Rahul Tewari as Junaa
  • Alka Amin
  • Alka Badola
  • Arun Kalra as Sunil ji

MKV File Details

MKV File Details

General
Format : Matroska
Format version : Version 4 / Version 2
File size : 1.07 GiB
Duration : 1 h 54 min
Overall bit rate : 1 330 kb/s

Video
ID : 1  Badhaai Ho Badhaai Hindi Movie Download
Format : AVC
Format/Info : Advanced Video Codec
Format profile : [email protected]
Format settings : CABAC / 4 Ref Frames
Format settings, CABAC : Yes
Format settings, RefFrames : 4 frames
Codec ID : V_MPEG4/ISO/AVC
Duration : 1 h 54 min
Bit rate : 1 200 kb/s
Width : 1 280 pixels
Height : 568 pixels
Display aspect ratio : 2.25:1
Frame rate mode : Constant
Frame rate : 29.970 (30000/1001) FPS
Color space : YUV
Chroma subsampling : 4:2:0
Bit depth : 8 bits
Scan type : Progressive
Bits/(Pixel*Frame) : 0.055
Stream size : 986 MiB (90%)
Writing library : x264 core 155 r2901 7d0ff22
Default : Yes
Forced : No

Audio
ID : 2  Badhai Ho Movie 2018 Download 720p
Format : AAC
Format/Info : Advanced Audio Codec
Format profile : LC
Codec ID : A_AAC-2
Duration : 1 h 54 min
Bit rate : 129 kb/s
Channel(s) : 2 channels
Channel positions : Front: L R
Sampling rate : 48.0 kHz
Frame rate : 46.875 FPS (1024 SPF)
Compression mode : Lossy
Stream size : 106 MiB (10%)
Language : Hindi
Default : Yes
Forced : No

Images, Screenshots Of Full Episodes

Some Images Of Badhaai Ho 2018 Movie 720p Pre-DVDrip x264

Badhaai Ho 2018 Full Movie Free Download Direct Links 720p Predvdrip

Badhaai Ho 2018 Full Movie Free Download Direct Links 720p Predvdrip

Badhaai Ho 2018 Full Movie Free Download Direct Links 720p Predvdrip

Badhaai Ho 2018 Full Movie Free Download Direct Links 720p Predvdrip

Badhaai Ho 2018 Full Movie Free Download Direct Links 720p Predvdrip

Badhaai Ho 2018 Full Movie Free Download Direct Links 720p Predvdrip

Badhaai Ho 2018 Full Movie Free Download Direct Links 720p Predvdrip

Watch The Full HD 720p, 1080p Movie Trailers

Watch Badhaai Ho 2018 Full Movie Trailer

Direct Download Links Of Badhaai Ho 2018 Full Movie In 720p Pre-DVDRip Given Below

Free Download Direct Links HD

Direct Links For Premium Users

If you are the member of this site then enter your login details and Enjoy Direct Links

Leave a Reply

Your email address will not be published. Required fields are marked *

Check Also

Sui Dhaaga (2018) 720p HDRip HEVC AAC – 600 MB

Sui Dhaaga 2018 Full Movie Free Download In 720p HDRip Quality Encoded In x265 HEVC MKV. T…