Athiratha 2018 In Hindi Dubbed Full Movie Free Download Untouched 720p WEB-HD Quality Encoded In x264 MKV.

Athiratha 2018 In Hindi Dubbed 720p Full Movie Free Download

Details Of Full Length Free Videos

Title: Athiratha 2018 Hindi Dubbed
Genres: Action | Thriller
Country: India
Language: Hindi
Release Date: 24 November 2017
Quality: 720p WEB-HD x264
Format: MKV
Size: 873-MB

IMDb

Hindi Movie Athiratha (Kannada: ಅತಿರಥ) is a 2017 Indian Kannada action thriller film directed by Mahesh Babu. It features Chethan Kumar and Latha Hegde in the lead roles along with Kabir Duhan Singh and Sadhu Kokila in key supporting roles. The score and soundtrack for the film are by Suraag and the cinematography is by Jai Anand.

The film is the official remake of Tamil film Kanithan (2016) which was directed by T. N. Santhosh and starred Atharvaa and Catherine Tresa.

Athiratha 2018 Hindi Movie Cast

  • Chethan Kumar
  • Latha Hegde
  • Kabir Duhan Singh
  • Sadhu Kokila
  • Avinash
  • Achyuth Kumar
  • Parkourpaiyan
  • Sudha Belawadi
  • Aruna Balaraj
  • Ester Norohna as item number

Video File Details

Video File Details

General
Unique ID : 209891510823601885831186428045003796813 (0x9DE7A2739FCB723857AF2FBF045B314D)
Complete name : C:\Users\latest\Downloads\Video\Athiratha.(2018).WEDHD.Untouched.720p.Hindi.Dubbed.AVC.AAC.-.LatestHDmovies.mkv
Format : Matroska
Format version : Version 4 / Version 2
File size : 832 MiB
Duration : 1 h 53 min
Overall bit rate : 1 026 kb/s
Movie name : Athiratha.(2018).WEBHD Hindi
Encoded date : UTC 2018-09-09 22:08:18
Writing application : mkvmerge v26.0.0 (‘In The Game’) 32-bit
Writing library : libebml v1.3.6 + libmatroska v1.4.9

Video
ID : 1
Format : VP9
Codec ID : V_VP9
Duration : 1 h 53 min
Bit rate : 918 kb/s
Width : 1 280 pixels
Height : 720 pixels
Display aspect ratio : 16:9
Frame rate mode : Constant
Frame rate : 25.000 FPS
Bits/(Pixel*Frame) : 0.040
Stream size : 744 MiB (89%)
Default : Yes
Forced : No

Audio
ID : 2
Format : Opus
Codec ID : A_OPUS
Duration : 1 h 53 min
Bit rate : 106 kb/s
Channel(s) : 2 channels
Channel layout : L R
Sampling rate : 48.0 kHz
Frame rate : 50.000 FPS (960 SPF)
Compression mode : Lossy
Stream size : 85.8 MiB (10%)
Language : Hindi
Default : Yes
Forced : No

Images, Screenshots Of Full Episodes

Some Images Of Athiratha 2018 Hindi 720p HD Movie

Athiratha 2018 In Hindi Dubbed 720p Full Movie Free Download

Athiratha 2018 In Hindi Dubbed 720p Full Movie Free Download

Athiratha 2018 In Hindi Dubbed 720p Full Movie Free Download

Athiratha 2018 In Hindi Dubbed 720p Full Movie Free Download

Watch The Full HD 720p, 1080p Movie Trailers

Watch Athiratha 2018 Full Movie Trailer

Direct Download Links Of Athiratha 2018 IN Hindi Dubbed 720p HD Given Below

Free Download Direct Links HD

Direct Links For Premium Users

If you are the member of this site then enter your login details and Enjoy Direct Links

Leave a Reply

Your email address will not be published. Required fields are marked *

Check Also

Sui Dhaaga (2018) 720p HDRip HEVC AAC – 600 MB

Sui Dhaaga 2018 Full Movie Free Download In 720p HDRip Quality Encoded In x265 HEVC MKV. T…