A Aa 2018 Hindi Dubbed Full Movie Free Download In 720p + 1080p WEBHD Quality Encoded In x264 With AAC Audio Original.

A Aa 2018 Hindi Dubbed Movie Free Download In 1080p + 720p HD

Details Of Full Length Free Videos

Title: A Aa 2018 Hindi Dubbed Download
Genres: Comedy | Drama | Romance
Country: India
Language: Hindi
Release Date: 3 June 2016
Quality: 720p + 1080p | WEB-HD x264
Format: MKV
Size: 1.2-GB | 1.9-GB

IMDb

Storyline

Anand and Anasuya meet each other on a train ride. The two eventually fall in love and have to fight for their relationship.

Free Download A Aa In 720p HD and 1080p Full HD Movie is a 2016 Telugu romantic comedy film written and directed by Trivikram Srinivas. Produced by S. Radha Krishna under his banner Haarika & Hassine Creations, it features Nithin and Samantha Ruth Prabhu in the lead roles. Mickey J Meyer composed the film’s score and soundtrack while Natarajan Subramaniam and Dudley handled the cinematography. The film is loosely based on the novel Meena written by Yaddanapudi Sulochana Rani, which had already been adapted into a 1973 movie Meena starring actor Krishna and his wife actress Vijaya Nirmala in her directorial debut. Production began on 24 September 2015 in Hyderabad and principal photography commenced on 16 October 2015. The film was released worldwide on 2 June 2016. The film received 7 nominations in the 64th Filmfare Awards South and 3 nominations in the 2nd IIFA Utsavam. Samantha won Best Actress in Leading Role Awards at the 64th Filmfare Awards South and 2nd IIFA Utsavam Awards for her performance as Anasuya Ramalingam. A Aa Hindi 720p Movie Download.

Cast

  • Nithin as Aanand Vihari (Nandu) (Aanand Bihari in Hindi version)
  • Samantha Ruth Prabhu as Anasuya Ramalingam (Anu) (Anasuya Ram Singh in Hindi version)
  • Anupama Parameswaran as Nagavalli (Bubli in Hindi version)
  • Naresh as Ramalingam, Anasuya’s father
  • Nadhiya as Mahalakshmi, Anasuya’s mother
  • Hari Teja as Mangamma, Anasuya’s assistant
  • Ananya as Bhanumathi (Bhanu), Anand’s sister
  • Rao Ramesh as Pallam Venkanna, Nagavalli’s father
  • Srinivas Avasarala as Shekhar Banerjee, Anasuya’s chosen groom
  • Ajay as Pallam Venkana’s son and Nagavalli’s brother (unnamed character)
  • Srinivasa Reddy as Gopal, Mahalakshmi’s secretary
  • Jayaprakash as Satyawada Krishnamoorthy, Anand’s father
  • Easwari Rao as Kameshwari, Anand’s mother
  • Posani Krishna Murali as Pallam Narayana, Venkanna’s brother
  • Joy Badlani as Sayajimoorthy, Anand’s uncle
  • Giri Babu as Mr. Banerjee, Shekhar’s grandfather
  • Sana as Latha, Mahalakshmi’s friend
  • Raghu Babu as Raghu, Latha’s affair
  • Praveen as Muthyam, Anand’s servant
  • Shakalaka Shankar as Pratap, a thief
  • Sri Sudha Bhimireddy
  • Annapoorna as Baby mamma (cameo)
  • Chammak Chandra as a groom for Bhanu (cameo)

A Aa 2018 Hindi Dubbed Original WEB-HD x264 AAC - 720p

A Aa 2018 Hindi Dubbed Original WEB-HD x264 AAC - 720p

General
Unique ID : 20508193184688356365221248830405903774 (0xF6DBBFD7122578FF24F8B0C8764859E)
Complete name : www.MovCr.com – A Aa (2018) 720p Hindi Dubbed Original WEBHD x264 AAC 1.2GB [MovCr].mkv
Format : Matroska
Format version : Version 4 / Version 2
File size : 1.20 GiB
Duration : 2 h 32 min
Overall bit rate : 1 123 kb/s
Movie name : www.MovCr.com
Encoded date : UTC 2018-08-26 12:45:47
Writing application : mkvmerge v23.0.0 (‘The Bride Said No’) 64-bit
Writing library : libebml v1.3.6 + libmatroska v1.4.9 / IDMmkvlib0.1
Language : und

Video
ID : 1
Format : VP9
Codec ID : V_VP9
Duration : 2 h 32 min
Bit rate : 995 kb/s
Width : 1 280 pixels
Height : 720 pixels
Display aspect ratio : 16:9
Frame rate mode : Constant
Frame rate : 24.000 FPS
Bits/(Pixel*Frame) : 0.045
Stream size : 1.06 GiB (89%)
Title : www.MovCr.com
Default : Yes
Forced : No

Audio
ID : 2
Format : AAC
Format/Info : Advanced Audio Codec
Format profile : LC
Codec ID : A_AAC-2
Duration : 2 h 32 min
Bit rate : 126 kb/s
Channel(s) : 2 channels
Channel positions : Front: L R
Sampling rate : 44.1 kHz
Frame rate : 43.066 FPS (1024 SPF)
Compression mode : Lossy
Stream size : 137 MiB (11%)
Title : www.MovCr.com
Language : Hindi
Default : Yes
Forced : No

A Aa 2018 Hindi Dubbed Original WEB-HD x264 AAC - 1080p

A Aa 2018 Hindi Dubbed Original WEB-HD x264 AAC - 1080p

General
Unique ID : 322178953554294232297065885585890235002 (0xF26168CF1A9E8E4DE6F16D2788D2527A)
Complete name : www.MovCr.com – A Aa (2018) 1080p Hindi Dubbed Original WEBHD x264 AAC 1.9GB [MovCr].mkv
Format : Matroska
Format version : Version 4 / Version 2
File size : 1.90 GiB
Duration : 2 h 32 min
Overall bit rate : 1 777 kb/s
Movie name : www.MovCr.com
Encoded date : UTC 2018-08-26 12:19:03
Writing application : mkvmerge v23.0.0 (‘The Bride Said No’) 64-bit
Writing library : libebml v1.3.6 + libmatroska v1.4.9

Video
ID : 1
Format : AVC
Format/Info : Advanced Video Codec
Format profile : [email protected]
Format settings : CABAC / 3 Ref Frames
Format settings, CABAC : Yes
Format settings, RefFrames : 3 frames
Codec ID : V_MPEG4/ISO/AVC
Duration : 2 h 32 min
Bit rate : 1 650 kb/s
Width : 1 920 pixels
Height : 1 080 pixels
Display aspect ratio : 16:9
Frame rate mode : Constant
Frame rate : 24.000 FPS
Color space : YUV
Chroma subsampling : 4:2:0
Bit depth : 8 bits
Scan type : Progressive
Bits/(Pixel*Frame) : 0.033
Stream size : 1.76 GiB (93%)
Title : www.MovCr.com
Default : Yes
Forced : No
Color range : Limited
Color primaries : BT.709
Transfer characteristics : BT.709
Matrix coefficients : BT.709

Audio
ID : 2
Format : AAC
Format/Info : Advanced Audio Codec
Format profile : LC
Codec ID : A_AAC-2
Duration : 2 h 32 min
Bit rate : 126 kb/s
Channel(s) : 2 channels
Channel positions : Front: L R
Sampling rate : 44.1 kHz
Frame rate : 43.066 FPS (1024 SPF)
Compression mode : Lossy
Stream size : 137 MiB (7%)
Title : www.MovCr.com
Language : Hindi
Default : Yes
Forced : No

Images, Screenshots Of Full Episodes

Some Images Of A Aa 2018 [720p+1080p] Hindi Movie

A Aa 2018 Hindi Dubbed Movie Free Download In 1080p + 720p HD

A Aa 2018 Hindi Dubbed Movie Free Download In 1080p + 720p HD

A Aa 2018 Hindi Dubbed Movie Free Download In 1080p + 720p HD

A Aa 2018 Hindi Dubbed Movie Free Download In 1080p + 720p HD

A Aa 2018 Hindi Dubbed Movie Free Download In 1080p + 720p HD

Watch The Full HD 720p, 1080p Movie Trailers

Watch A Aa 2018 Hindi Dubbed Movie Trailer

Direct Download Links Of A Aa 2018 Full Hindi Movie In 720p + 1080p HD Given Below

Free Download Direct Links HD

Direct Links For Premium Users

If you are the member of this site then enter your login details and Enjoy Direct Links

Leave a Reply

Your email address will not be published. Required fields are marked *

Check Also

Sui Dhaaga (2018) 720p HDRip HEVC AAC – 600 MB

Sui Dhaaga 2018 Full Movie Free Download In 720p HDRip Quality Encoded In x265 HEVC MKV. T…